| 联系站长
如果本站无法访问,请尝试登陆:www.cdsoso.cc
高级
搜索
当前位置:主页 > 音乐 > 华语音乐

陈奕迅 -《Taste the Atmosphere》EP[APE]

发布时间:2011/01/02 14:07 | 更新时间:2011/11/24 05:26

CdSoSo数字图书馆
浏览:454
名称:陈奕迅 -《Taste the Atmosphere》EP[APE]
分类: -
地区
语言
发行年代:2011年
发布时间:2011年01月02日
更新时间:2011年11月24日
CdSoSo微信公众号
脸搜小程序

打赏

取消

感谢您的支持,我会继续努力的!

扫码支持
扫码打赏,你说多少就多少

打开支付宝扫一扫,即可进行扫码打赏哦

介绍

简介: 专辑中文名: Taste the Atmosphere歌手: 陈奕迅音乐风格: 流行资源格式: APE版本: EP发行时间: 2010年10月15日地区: 香港语言: 粤语简介:
陈奕迅 -《Taste the Atmosphere》EP[APE]
专辑介绍:
陈奕迅又有新搞作,在最新EP《Taste the Atmosphere》与三位天后交锋,在首支主打歌「讲男讲女」请来阔别乐坛23年的露云娜合唱,大胆地把两性心态来高谈阔论,由伍仲衡作曲和蓝奕邦填词。此外,Eason在「 Welcome to the Future」和「我杯茶」分别找来萨顶顶和莫文蔚来作featuring,感觉耳目一新。第二主打「超错」由潘源良作词和前乐队CityBeat主音刘诺生作、编曲, Eason 的演绎充满了摇滚玩味。
来源是正版港版CD
压缩包内有EAC的提取日志log文件
压缩包含2个CUE,欣赏前务必阅读包内的readme.TXT
试听:试听:叶问风中转 - Demo.version(陈奕迅)
http://www.tudou.com/v/KtZCUc4x_oc/v.swf
Exact Audio Copy V0.99 prebeta 5 from 4. May 2009
EAC 抓取日志文件从10. 十二月 2010, 15:59
陈奕迅 / Taste the Atmosphere
使用驱动器 :ASUS DVD-E616A2 Adapter: 0 ID: 0
读取模式 : 保护
使用精确流 : 是
废除音频缓冲 : 否
使用 C2 指针 : 是
读取偏移校正 : 6
读取 Lead-In 和 Lead-Out : 否
用静音填充抓取中丢失偏移的采样 : 是
去除首尾静音块 : 否
在 CRC 计算中使用了空样本 : 否
已用接口 : Win NT 及 2000 本地 Win32 接口
所用输出格式 : Monkey s Audio 无损编码器
已选比特率 : Extra High Lossless Compression
质量 : 高
添加 ID3 标签 : 是
命令行压缩器 : D:Program Files (x86)foobar2000mac.exe
被抓轨 CD 的 TOC
音轨 | 开始 | 长度 | 起始扇区 | 结尾扇区
--------------------------------------------------
1 | 0:00.00 | 3:29.43 | 0 | 15717
2 | 3:29.43 | 4:47.33 | 15718 | 37275
3 | 8:17.01 | 6:08.45 | 37276 | 64920
4 | 14:25.46 | 4:30.49 | 64921 | 85219
5 | 18:56.20 | 3:55.30 | 85220 | 102874
6 | 22:51.50 | 13:26.59 | 102875 | 163383
范围状态及错误
已选择范围
文件名 F:MyMusics陈奕迅Taste the Atmosphere陈奕迅 - Taste the Atmosphere.wav
峰值电平 99.5 %
范围质量 100.0 %
测试 CRC F2EF645C
复制 CRC F2EF645C
复制成功
没有错误发生
状态报告结尾

风刀雪剑.vc

精华资源: 189

全部资源: 193

加关注

同类资源  ·  本周排行榜