| 联系站长
如果本站无法访问,请尝试登陆:www.cdsoso.cc
高级
搜索
当前位置:主页 > 电影 > 其他

意大利种马 Italian.Stallion.1970.[qvocd.org].DVDRiP

发布时间:2012/12/23 21:49 | 更新时间:2012/12/23 22:21

豆瓣评分0
CdSoSo数字图书馆
浏览:29099
名称:意大利种马 Italian.Stallion.1970.[qvocd.org].DVDRiP
分类: -
地区
语言
发行年代:2012年
发布时间:2012年12月23日
更新时间:2012年12月23日
CdSoSo微信公众号
脸搜小程序

打赏

取消

感谢您的支持,我会继续努力的!

扫码支持
扫码打赏,你说多少就多少

打开支付宝扫一扫,即可进行扫码打赏哦

介绍

简介:
            引用 龙哥当年很文艺的爱情动作片
◎译  名 意大利种马
◎片  名 Italian Stallion
◎年  代 1970
◎国  家 美国
◎类  别 剧情/成人
◎语  言 英语
◎字  幕 N/A
◎IMDB评分 2.7/10 - 1,399
◎IMDB链接 http://www.imdb.com/title/tt1907668/
◎文件格式 XviD + MP3
◎视频尺寸 640 x 480
◎文件大小 700 MB
◎片  长 66 Mins
◎导  演 Morton Lewis
◎主  演 
  缀尔维斯特·史泰龙 Sylvester Stallone   ... 匀琀甀搀
  Henrietta Holm   ... Kitty
  Jodi Van Prang   ... Jodi
  一椀挀栀漀氀愀猀 Warren   ... 一椀挀欀
  Frank Micelli   ... Frank
  Barbara Strom   ... Barb
简介
Kitty and Stud are lovers. They enjoy a robust sex-life, which includes fellatio and light S&M;, specifically, Stud belt-whipping Kitty. Three women come over for a party and Stud services them, one after the other.
意大利种马 Italian.Stallion.1970.[qvocd.org].DVDRiP
代码 Italian Stallion with Sylvester Stallone.1970.[qvocd.org].DVDRiP.XviD.avi
General
  Complete name : Italian Stallion with Sylvester Stallone.1970.[qvocd.org].DVDRiP.XviD.avi
  Format : AVI
  Format/Info : Audio Video Interleave
  File size : 700 MiB
  Duration : 1h 6mn
  Overall bit rate : 1 474 Kbps
  Writing application : VirtualDubMod 1.5.4.1 (build 2178/release)
  Writing library : VirtualDubMod build 2178/release
Video #0
  ID : 0
  Format : MPEG-4 Visual
  Format profile : Advanced [email protected]
  Format settings, BVOP : 1
  Format settings, QPel : No
  Format settings, GMC : No warppoints
  Format settings, Matrix : Default (H.263)
  Muxing mode : Packed bitstream
  Codec ID : XVID
  Codec ID/Hint : XviD
  Duration : 1h 6mn
  Bit rate : 1 337 Kbps
  Width : 640 pixels
  Height : 480 pixels
  Display aspect ratio : 4:3
  Frame rate : 29.970 fps
  Color space : YUV
  Chroma subsampling : 4:2:0
  Bit depth : 8 bits
  Scan type : Progressive
  Compression mode : Lossy
  Bits/(Pixel*Frame) : 0.145
  Stream size : 635 MiB (91%)
  Writing library : XviD 0039 build=2005.09.25 (UTC 2005-09-25)
Audio #1
  ID : 1
  Format : MPEG Audio
  Format version : Version 1
  Format profile : Layer 3
  Codec ID : 55
  Codec ID/Hint : MP3
  Duration : 1h 6mn
  Bit rate mode : Constant
  Bit rate : 128 Kbps
  Channel(s) : 2 channels
  Sampling rate : 44.1 KHz
  Compression mode : Lossy
  Stream size : 60.8 MiB (9%)
  Alignment : Split accross interleaves
  Interleave, duration : 67 ms (2.00 video frames)
  Interleave, preload duration : 500 ms
  Writing library : LAME3.92

短评

功夫胸毛.qv

精华资源: 189

全部资源: 193

加关注

同类资源  ·  本周排行榜