| 联系站长
如果本站无法访问,请尝试登陆:www.cdsoso.cc
高级
搜索
当前位置:主页 > 动漫 > 其他

[哆啦A梦] (Doraemon Collection) [繁英外挂字幕][9CD 共144集][DVDRip]

发布时间:2010/12/16 23:58 | 更新时间:2011/11/24 00:46

CdSoSo数字图书馆
浏览:2950
名称:[哆啦A梦] (Doraemon Collection) [繁英外挂字幕][9CD 共144集][DVDRip]
分类: -
地区
语言
发行年代:2010年
发布时间:2010年12月16日
更新时间:2011年11月24日
CdSoSo微信公众号
脸搜小程序

下载资源下载列表

点此下载
点此下载
点此下载
点此下载
点此下载
点此下载
点此下载
点此下载
点此下载
点此下载
点此下载
点此下载
点此下载
点此下载
点此下载
点此下载
点此下载
点此下载
点此下载
点此下载
点此下载
点此下载
点此下载
点此下载
点此下载
点此下载
点此下载

打赏

取消

感谢您的支持,我会继续努力的!

扫码支持
扫码打赏,你说多少就多少

打开支付宝扫一扫,即可进行扫码打赏哦

介绍

简介: 本帖最后由 abdomino 于 2008-12-12 09:39 编辑
--> 电骡资源

下面是用户共享的文件列表. 安装电骡后, 您可以点击这些文件名进行下载 -->-->DoraemonCD1.avi-->690.67MB-->-->DoraemonCD1.idx-->156.53KB-->-->DoraemonCD1.sub-->12.21MB-->-->DoraemonCD2.avi-->690.66MB-->-->DoraemonCD2.idx-->140.31KB-->-->DoraemonCD2.sub-->11.56MB-->-->DoraemonCD3.avi-->690.57MB-->-->DoraemonCD3.idx-->139.92KB-->-->DoraemonCD3.sub-->11.26MB-->-->DoraemonCD4.avi-->692.62MB-->-->DoraemonCD4.idx-->187.69KB-->-->DoraemonCD4.sub-->14.83MB-->-->DoraemonCD5.avi-->700.55MB-->-->DoraemonCD5.idx-->180.39KB-->-->DoraemonCD5.sub-->14.2MB-->-->DoraemonCD6.avi-->700.56MB-->-->DoraemonCD6.idx-->170.9KB-->-->DoraemonCD6.sub-->13.43MB-->-->DoraemonCD7.avi-->691.65MB-->-->DoraemonCD7.idx-->176.08KB-->-->DoraemonCD7.sub-->14.29MB-->-->DoraemonCD8.avi-->692.7MB-->-->DoraemonCD8.idx-->165.41KB-->-->DoraemonCD8.sub-->13.16MB-->-->DoraemonCD9.avi-->692.74MB-->-->DoraemonCD9.idx-->162.15KB-->-->DoraemonCD9.sub-->13.49MB-->--> 6.21GB电骡主页 | 下载电骡 | 使用指南 | 如何发布
-->

[哆啦A梦] (Doraemon Collection) [繁英外挂字幕][9CD 共144集][DVDRip]

【中文名称】哆啦A梦 1979年版
【英文名称】Doraemon Collection
【日文名称】ドラえもん
【视频格式】AVI
【发行时间】1979
【发行国家】日本
【对白语言】日语
【字幕情况】中英外挂
【剧情介绍】
哆啦A梦(Doraemon),日本著名漫画故事,故事中的哆啦A梦是一只来自未来世界的机器猫,用自己神奇的百宝袋和各种奇妙的道具帮助主议会雄解决各种困难。哆啦A梦的故事将人们带进一个奇妙、充满想像力的世界。因此,它能作为一个常青的形象,伴随几代少年儿童的成长。
  哆啦A梦最初是由两位漫画家合作创作出版的。他们是藤本弘和安孙子素雄。1969年,哆啦A梦首次被小学馆作为长篇连载漫画出版,自此,这个可爱的机器猫就越来越受到广大观众的喜爱。当首部哆啦A梦动画片于1979年在日本播出时,全日本随即掀起了哆啦A梦的热潮,尽管在早期的时候曾经有过几年萧条期(如1973年第一版幻之动画的低迷人气),但是几十年来在日本取得了空前的成功。随后第一部哆啦A梦电影亦在1980年推出,除了2005年外,每年春季都有一部电影在日本发行。
  阿蒙,机器猫,小叮当→哆啦A梦
  1991年哆啦A梦登陆中国大陆,当时都称它为“阿蒙”(前期)、“机器猫”(后期)。而“叮当”或“小叮当”这种叫法在台湾十分流行,香港亦如此。据说香港人喜欢在颈部坠个东西祈求平安,他们把此物称做叮当;而机器猫身上正好挂着一个大铃铛。同时,机器猫早期被各国引进时都分别使用不同译名,以便当地少儿接受。哆啦A梦在藤子先生的笔下永远保持着亲切友善的形像,很受各国儿童欢迎,根据藤子·F·不二雄的遗愿,世界各地把他笔下的这个可爱的蓝色猫型机器人统一使用本来响亮的名字——哆啦A梦。

☆1969在日本首次推出系列漫画;
☆1979系列动画片在日本朝日电视台首次播出;
☆1980推出第一部哆啦A梦动画电影;
☆1991系列动画片首次被引进到中国;
☆1992系列动画片在东南亚各国和南美推出;
☆2000哆啦A梦30周年庆祝活动在台湾和香港等地举办。
☆2005年3月18日 大山版动画播放完1984集的动画后(包括所有电影、中篇,因为哆啦A梦的配音人叫大山羡代,所以称之为大山版)
☆2005年4月15日 水田版重制动画开始放送(哆啦A梦的配音人是水田山葵,所以称之为水田版)

本DVDRIP采用的是之前发行的Doraemon Collection DVD(共9张),一共收入144话,每16话作为一个文件,每个文件播放时长为1小时50分,并未包含1979年TV版的所有内容

【人物介绍】

[哆啦A梦] (Doraemon Collection) [繁英外挂字幕][9CD 共144集][DVDRip]

姓 名:哆啦A梦 CV:水田わさび
出生地:日本东京
出生时间:2112年9月3日
身 高:129.3cm
体 重:129.3kg
胸 围:129.3cm
坐 高:100.0cm
最喜欢的食物:铜锣饼
最害怕的东西:老鼠
品 质: 次品
居住地: 野比家
主人:野比孙子的孙子

[哆啦A梦] (Doraemon Collection) [繁英外挂字幕][9CD 共144集][DVDRip]

姓名: 野比康夫(Nobita Nobi) CV:大原めぐみ
别名: 大雄
身份: 小学四年级学生,
现在是机器猫的主人
性格: 胆小怕事,马马虎虎
最擅长的: 翻绳,射击,睡觉
最不擅长的: 学习,游泳,棒球
最喜欢的: 静子
最害怕的: 妈妈,大胖

[哆啦A梦] (Doraemon Collection) [繁英外挂字幕][9CD 共144集][DVDRip]

姓名: 源静子 CV:かかずゆみ
又叫静子,静香,宜静,小静等。
是野比的好朋友,也是未来的妻子 。
喜欢:洗澡

[哆啦A梦] (Doraemon Collection) [繁英外挂字幕][9CD 共144集][DVDRip]

姓名: 骨川强夫 CV:関 智一
又称为强夫或强强,阿福,小夫。
家境富裕,喜欢炫耀。
虽然长的很难看,却自以为是美男子。
十分害怕大胖,常常帮他一起欺负野比。

[哆啦A梦] (Doraemon Collection) [繁英外挂字幕][9CD 共144集][DVDRip]

姓名: 刚田武 CV:木村 昴
又称为大胖,胖虎,技安。
是这一带的孩子王,
人人都害怕他。 家里经营杂货店。
大胖的志愿是成为歌星,
但他的歌声实在难以让人恭维。
他的演唱会就是附近小孩的灾难日

【目录】

CD1:
1、 梦中城市 大雄梦幻乐园
2、 变身饼干
3、 应付考试的转印面包
4、 NS徽章
5、 摔交杀手
6、 大雄的新娘
7、 哆啦A梦的大预言
8、 猎恐龙
9、 最高机密 间谍大作战
10、幸运枪
11、诅咒照相机
12、建设地下铁
13、一辈子至少想考一次100分
14、交换妈妈游戏
15、空中大战
16、无中生有门
CD2:
1、 奔跑吧,机械竹马
2、 啊,喜欢,喜欢,喜欢
3、 交通道具组合
4、 漂亮的小美
5、 玩具兵团
6、 鲤鱼跃龙门
7、 旧道具竞走
8、 纸劳作真快乐
9、 猛兽驯服手套
10、祖先们,加油吧
11、像白百合一般的女孩
12、心是口非笛
13、时光照相机
14、求婚大作战
15、事前约定机
16、狸猫变身机
CD3:
1、 谁的谁做什么
2、 拍马屁的口红
3、 怀念的祖母(前)
4、 怀念的祖母(后)
5、 和未来相遇的呼叫器
6、 我的老师
7、 镜子里的大雄
8、 立体烤具
9、 坐潜水艇到海里去
10、友情胶囊
11、悟空头圈
12、公寓树
13、用时光机把犯人...
14、射击王比赛
15、罚金箱
16、大雄漂流记
CD4
1、 空气方块制造机
2、 继续喷雾器
3、 拿回失物机
4、 预先天线
5、 声音的硬块
6、 许愿星
7、 变成雷吧
8、 XYZ光相机
9、 未来世界的怪人
10、 机器子的爱
11、拿云来玩吧
12、真相胶布
13、假宇宙人
14、我出生的日子
15、用弓箭上学
16、用镜子广告
CD5
1、 蜗牛屋好轻松
2、 人类制造机
3、 偷出妈妈的钻石
4、 东不辣粉
5、 来自未来的购物
6、 机器人操纵训练机
7、 榻榻米田
8、 猫开公司了
9、 速度时钟
10、女朋友目录
11、手取望远镜
12、家越来越远
13、贿赂作战计划
14、撒哈拉沙漠不能读书
15、撒谎镜子
16、扔扔绳
CD6
1、 向邪恶之道前进
2、 男生女生药
3、 碰碰叶
4、 失忆铁锤
5、 欢笑生活
6、 宇宙泰山(前)
7、 宇宙泰山(后)
8、 灵魂机器
9、 就算在胃中、水中
10、梦的频道
11、进化退化放射线源
12、超级铠甲
13、温泉旅行
14、如果技安是超人
15、老鼠跟炸弹
16、如意丸
CD7
1、 看到的特讯
2、 人类遥控器
3、 制造讨厌机
4、 台风的风子
5、 不在的淋浴
6、 预感虫
7、 万能缰绳
8、 慢慢吞吞慌慌张张
9、 跟踪徽章
10、健忘鸟
11、自动贩卖时间机
12、爷爷托梦
13、机器人纸
14、黑带大雄
15、超级混合器
16、无人岛的制作方法
CD8
1、 台风制造机
2、 不要钱的世界
3、 颠颠倒倒
4、 分享口香糖
5、 大雄左卫门的秘宝
6、 计划钟
7、 远古漂流记
8、 到处大炮
9、 飞天鱼
10、一寸法师
11、到处搬家
12、梦游机
13、怪谈灯
14、预言日记好可怕
15、投手帽
16、茶壶录音机
CD9
1、 倍倍药
2、 错乱钟
3、 读书室的大雪崩
4、 芝麻锁
5、 粘粘金币
6、 机器丸
7、 奇怪的伞
8、 如果电话亭
9、 时间扑满
10、主角套用机
11、心电感应机器人
12、奖券中大奖
13、实物立体日光相机
14、报社游戏
15、赞美机器人
16、在公园滑雪

【视频参数】
Video
Format : MPEG-4 Visual
Format profile : [email=Simple@L3]Simple@L3[/email]
Format settings, BVOP : Yes
Format settings, QPel : No
Format settings, GMC : No warppoints
Format settings, Matrix : Default
Codec ID : XVID
Codec ID/Hint : XviD
Duration : 1h 46mn
Bit rate : 801 Kbps
Width : 512 pixels
Height : 384 pixels
Display aspect ratio : 4/3
Frame rate : 23.976 fps
Resolution : 24 bits
Colorimetry : 4:2:0
Scan type : Progressive
Bits/(Pixel*Frame) : 0.170
Stream size : 610 MiB (88%)
Writing library : XviD 0.0.09 (UTC 2003-03-25)
Audio
Format : MPEG Audio
Format version : Version 1
Format profile : Layer 3
Codec ID : 55
Codec ID/Hint : MP3
Duration : 1h 46mn
Bit rate mode : Variable
Bit rate : 98.1 Kbps
Channel(s) : 2 channels
Sampling rate : 32.0 KHz
Resolution : 16 bits
Stream size : 74.7 MiB (11%)
Alignment : Aligned on interleaves
Interleave, duration : 36 ms (0.86 video frame)
Interleave, preload duration : 475 ms

【截图】
[img] http://api.photoshop.com/home_e58e1352c3fa4ff18869779ebdd41cda/adobe-px-assets/bdbb1d52ebb84df2857e740fd9bc371f[/img]

[img] http://api.photoshop.com/home_e58e1352c3fa4ff18869779ebdd41cda/adobe-px-assets/d7e275e98b044dfeb9bd9bcb0db484d1[/img]

ied2k

精华资源: 189

全部资源: 193

加关注

同类资源  ·  本周排行榜